当前位置:
首页 » 动作片 » 大兵小将

[大兵小将][BD-MKV][国语中字][720P]

《大兵小将》海报

【影片原名】Da bing xiao jiang

【外文别名】Big Soldier (USA) (working title)

Big Soldiers (USA) (working title)

Junior Soldiers (USA) (original script title)

Little Big Soldier (International: English title)

【中文译名】大兵小将

【出品公司】华夏电影发行有限责任公司

【出品年代】2010 年

【上映日期】2010年02月14日 中国

【影片级别】Hong Kong:IIB

【IMDB评分】7.1/10 (508 votes)

【国 家】中国/中国香港

【类 别】动作/冒险/喜剧

【导 演】丁晟 Sheng Ding

【主 演】成龙 Jackie Chan

王力宏 Lee-Hom Wang....(rumored)

刘承俊 Sung-junYoo

徐冬梅 Dongmei Xu

林鹏 Peng Lin

王宝强 Baoqiang Wang

于荣光 Rongguang Yu

吴樾 Yue Wu

牛犇 Ben Niu

杜玉明 Yuming Du

卢惠光 Ken Lo

大兵小将剧情介绍:

  战国后期,各国统治者为霸权角逐,战火在大地延续--

  卫国主营被梁国军队伏击,在一场强烈的战争之后,两败俱伤,仅仅剩下一个梁国士兵(成龙饰)和一个卫国将军(王力宏饰),士兵是因为装死而生存下来,而卫国将军则是虽生犹死。

  士兵认为抓住将军,就可以得到奖赏,这样他就能远离战争。

  士兵毫不费力地抓住了受伤的将军,他们开始了回梁国的漫长旅途。

  途中,将军曾试图多次自杀,士兵在设法救将军时,有几次也令他自己几乎丧生,他们一起的回国旅程使大家都变得不堪忍受。士兵恨将军入骨,在他的脑海里,将军是不顾一切地追求战争,他是毁坏士兵乡下平静生活的罪魁祸首。在另一方面,将军也痛恨士兵,他觉得士兵是个贪生怕死的懦夫,就是这种小人令他输掉战争,使他无法实现远大的理想。

  在路上,他们遇到一群躲避战争的难民,夺走了他们的食物和水,以及所有的衣物,使他们几乎死于饥饿和寒冷。

  将军的弟弟组织了一次大规模的搜索,希望发现将军的下落。士兵把受伤的将军背在背上,逃避追寻的队伍。

但,将军在士兵毫无防备的情况逃脱了。

  因缘巧合,两人分别被某游牧部落抓住,部落士兵欺凌并拷打他们,使他们终于忘记了彼此的地位和身份,他们决定一起逃生。由于他们在性格和行为上的巨大差异,他们的逃跑计划再次发生阻碍。

  后来,他们在一位中原歌姬的帮助下,顺利逃走。但是一切并未像想象中那幺简单,埋伏正在前方--

◎幕后制作

成龙追求文戏

  《大兵小将》中成龙扮演的是贪生怕死的大兵,扮相猥琐,与此前大家熟悉的成龙形象很不同。在片场,成龙对导演言听计从,丁晟说,"我起初认为和大哥合作压力会很大,但在现场发现,大哥全听我的。实在有分歧也是商量,而且大哥必须在前一天晚上就把第二天所拍的戏份全都聊透了,这样让拍摄很顺利,基本上没有遇到什幺题"。丁晟坚持说,虽然成龙出演的任何一部电影,都会被烙上鲜明的成龙印记,这部电影也不例外,"但我可以负责任地说,《大兵小将》还是与其他成龙电影不太一样,成龙在寻求一种变化,无论是他前年出演的《新宿事件》,还是这部《大兵小将》,都可以看出成龙追求文戏和人物心理变化的过程,这些要大于功夫本身。观众看成龙电影没有功夫是不行的,但成龙现在已经悄然将这种功夫进行了改造。"

王力宏武戏负伤不断

  《大兵小将》距王力宏的上一部电影已有两年,之所以此次出演古装动作片,王力宏是希望改变别人对他的印象,"以前演的戏,就算是武打片,也是文质彬彬的那种,因此我很希望有一部戏能够展现我强硬、大男人的一面。《大兵小将》里我演一个将军,这个角色有暴力倾向,脾气暴躁,跟我太不一样了。"当然,玩颠覆就要付出代价,王力宏在拍戏时,被太阳晒得起了水泡,嘴唇也干裂流血。

  拍打戏,王力宏一开始很有压力,"我专门花了3个月时间学了一些武打的基本功--而且我是左撇子,最大的难度在于我的动作要变成'右撇子'。"他透露说,自己是每天都受伤,"浑身都是伤。尤其在排戏的时候,还没有实拍,我们走位置、试戏,那个时候更容易受伤。"

三人一马的"古装公路片"

  让已拍过上百部电影,什幺世面都已见过的成龙牵挂了20年,《大兵小将》到底有何特异之处?

  虽然在影片出炉之前,成龙不愿意多说,但世上没有不透风的墙,据说影片最特异之处,就在于这是一部"古装公路片"。公路片我们很多人都知道,是西方类型片的一种。但"古装公路片"还真没听过。

  《大兵小将》正是这幺一部"古装公路片",故事发生在秦代,主要角色只有四个,三人一马,所有的故事、情节、纠葛全都发生在这三人一马之间,听听倒是挺有意思。

成龙演小将 王力宏演大兵

  成龙一直想演其中那个大兵,二十年前就想演,谁能想到,这剧本一写就写了二十年,当年的毛头小伙现在已成影坛大哥,自然也不能演那大兵,只有"委屈"自己演小将。

  大兵谁来演,王力宏。够年轻,人又帅,又是成龙夫人林凤娇钦点。据说,林凤娇关注王力宏这个帅哥已经很久了,不仅听他的歌,还看他的戏,《色,戒》《雷霆战警》等,一部没拉下,对于王力宏这位优质偶像非常欣赏,于是向成龙极力推荐。

  而成龙恰好与王力宏也早在10年前就相识,当时香港跨年晚会,成龙还热情招待王力宏游香港。今年,两人更因北京奥运,在雅典、海南岛、北京几次见面,成龙还特别播放为已逝父亲制作的纪录片给王力宏看,两人关系更进一层,再加上王力宏之前没有演过古装片,古装扮相非常值得期待,所以也就一拍即合。

导演是新人丁晟

  虽然是自己写的剧本,不过成龙并不打算自己执导,也不打算找大牌导演,而是要交给一个新人。昨天,这位导演也正式出炉,正是《硬汉》导演丁晟。

  成龙和丁晟是老相识,曾经多次合作拍摄广告。对于丁晟,成龙一向欣赏,前几日,在北京,丁晟邀请成龙欣赏《硬汉》样片(丁晟第一部影片,11月28日上映),成龙一下子被镇住了,立刻决定把《大兵小将》交给丁晟执导,自己则只是作为出品人、投资人以及演员参与。

  记者昨日致电丁晟,他也默认了这一消息,喜滋滋地说:"大哥对我确实挺器重的,能得到成龙大哥的赏识我感到非常荣幸,但我是一个新导演,新片的事情我不便透露。"

  他不透露,有人透露,据说《大兵小将》明年初就会开拍,除了成龙、王力宏外,还会有一位大牌加盟,另外,那匹马也非常难找,因为它也是一个非常重要的角色,这部影片除了具有公路片特色外,还会具有西部片的特色,风格非常特殊,而影片拍摄也会非常快,如果没什幺意外,明年十一我们就能看到这部风格特异的影片了

◎拍摄花絮

  ·《大兵小将》的故事来自于成龙20年前的一段突发奇想,其间他曾将这个故事讲给包括丁晟在内的无数人听。"聊完丁晟决定把这个故事写出来,当时我没在意,因为很多听我讲过的人都说要写出这个故事,没想到一年之后,丁晟真的拿出剧本给我看,我们自然一拍即合。"

  ·谈到小将的人选,成龙说,一开始的候选人有吴彦祖、房祖名、王力宏,"我最想用的是吴彦祖,他是我一手带出来的,可惜我们刚刚合作了《新宿事件》;房祖名和我演戏,两人太像了观众肯定会笑场,所以选了王力宏。"

  ·《大兵小将》是一部十足的男人戏,但实际上这部电影还有一个女主角林鹏。她就是在ao-yun开幕式,领着一群孩子来到会场中央,在画布上画画的那位女教师。

File size : 2.05 GiB

Duration : 1h 35mn

Overall bit rate : 3 071 Kbps

Encoded date : UTC 2010-04-12 00:02:01

Writing application : mkvmerge v3.2.0 ('Beginnings') 编译于 Feb 12 2010 16:46:17

Writing library : libebml v0.7.9 + libmatroska v0.8.1

Video #1

ID : 1

Format : AVC

Format/Info : Advanced Video Codec

Format profile : High@L3.1

Format settings, CABAC : Yes

Format settings, ReFrames : 3 frames

Muxing mode : Container profile=Unknown@3.1

Codec ID : V_MPEG4/ISO/AVC

Duration : 1h 35mn

Bit rate : 2 562 Kbps

Nominal bit rate : 2 622 Kbps

Width : 1 280 pixels

Height : 720 pixels

Display aspect ratio : 16:9

Frame rate : 24.000 fps

Resolution : 8 bits

Colorimetry : 4:2:0

Scan type : Progressive

Bits/(Pixel*Frame) : 0.116

Stream size : 1.71 GiB (83%)

Writing library : x264 core 80 r1376M 3feaec2

Encoding settings : cabac=1 / ref=3 / deblock=1:0:0 / analyse=0x3:0x113 / me=hex / subme=7 / psy=1 / psy_rd=1.0:0.0 / mixed_ref=1 / me_range=16 / chroma_me=1 / trellis=0 / 8x8dct=1 / cqm=0 / deadzone=21,11 / fast_pskip=1 / chroma_qp_offset=-2 / threads=4 / sliced_threads=0 / nr=0 / decimate=1 / mbaff=0 / constrained_intra=0 / bframes=3 / b_pyramid=0 / b_adapt=1 / b_bias=0 / direct=1 / wpredb=1 / wpredp=2 / keyint=250 / keyint_min=25 / scenecut=40 / rc_lookahead=40 / rc=2pass / mbtree=1 / bitrate=2622 / ratetol=1.0 / qcomp=0.60 / qpmin=10 / qpmax=51 / qpstep=4 / cplxblur=20.0 / qblur=0.5 / ip_ratio=1.40 / aq=1:1.00

Audio #2

ID : 2

Format : AC-3

Format/Info : Audio Coding 3

Codec ID : A_AC3

Duration : 1h 35mn

Bit rate mode : Constant

Bit rate : 448 Kbps

Channel(s) : 6 channels

Channel positions : Front: L C R, Surround: L R, LFE

Sampling rate : 48.0 KHz

Stream size : 306 MiB (15%)

Text #3

ID : 3

Format : UTF-8

Codec ID : S_TEXT/UTF8

Codec ID/Info : UTF-8 Plain Text

Title : 中文字幕

  《大兵小将》是一部电影,感谢您下载观看大兵小将,五一BT影院精心收集整理了所有本片资源列表,包括《大兵小将BT种子》、《大兵小将Magnet磁力链接》、《大兵小将迅雷下载》、《大兵小将QQ旋风下载》和《大兵小将快车下载》等常用下载方式,我们汇集网络数十家国内一流的迅雷、bt、磁力电影网络资源,是致力于为电影迷们分享高清、免费、优质的德国电影资源的网站。

大兵小将电影下载:

提示:推荐使用BitComet、Utorrent、迅雷下载大兵小将。喜欢在线看的朋友可以把种子上传到百度网盘、115网盘,离线下载完手机电脑都可以在线看。

大兵小将电影评论

评论模块已关闭

更多精彩电影