当前位置:
首页 » 剧情片 » 佩小姐的奇幻城堡

佩小姐的奇幻城堡 Miss.Peregrines.Home.For.Peculiar.Children.720p.KORSUB.HDRip.AAC2.0-STUTTERSHIT

《佩小姐的奇幻城堡》海报

◎译 名 佩小姐的奇幻城堡/怪屋女孩/怪奇孤儿院(台)/柏鸟小姐的童幻世界(港)/佩瑞格林小姐的特异儿童之家/特异儿童之家/裴小姐的奇幻城堡

◎片 名 Miss Peregrine's Home for Peculiar Children

◎年 代 2016

◎国 家 美国

◎类 别 剧情/奇幻/冒险

◎语 言 英语

◎上映日期 2016-09-30(美国)/2016-12-02(中国大陆)

◎IMDb评分 7.1/10 from 29,215 users

◎豆瓣评分 7.5/10 from 3,004 users

◎片 长 127分钟

◎导 演 蒂姆·波顿 Tim Burton

◎主 演 阿萨·巴特菲尔德 Asa Butterfield

伊娃·格林 Eva Green

塞缪尔·杰克逊 Samuel L. Jackson

朱迪·丹奇 Judi Dench

艾拉·珀内尔 Ella Purnell

克里斯·奥多德 Chris O'Dowd

金·迪肯斯 Kim Dickens

艾莉森·珍妮 Allison Janney

特伦斯·斯坦普 Terence Stamp

鲁伯特·艾弗雷特 Rupert Everett

芬利·麦克米伦 Finlay MacMillan

艾拉·瓦勒斯泰特 Ella Wahlestedt

米洛·帕克 Milo Parker

匹克西·戴夫斯 Pixie Davies

澳澜·琼斯 O-Lan Jones

佩小姐的奇幻城堡剧情介绍:

  杰克(阿萨·巴特菲尔德 Asa Butterfield 饰)的爷爷自杰克还小的时候,就会常说床边故事给他听,故事中有许多拥有特殊能力的小孩。爷爷神秘死亡后,留下了关于这个属于另一个时空世界种种谜团的线索,杰克循着这些线索,进入了这个神秘的世界,发现这群奇怪的孩子真实存在,他们住在这里是为了躲避可怕的变异怪兽。随着杰克的到来,危险也同时抵达,杰克需要与这群孩子一起,抵御黑暗力量。

Video

ID : 1

Format : AVC

Format/Info : Advanced Video Codec

Format profile : High@L4.1

Format settings, CABAC : Yes

Format settings, ReFrames : 4 frames

Codec ID : avc1

Codec ID/Info : Advanced Video Coding

Duration : 2h 6mn

Bit rate : 3 500 Kbps

Width : 1 280 pixels

Height : 720 pixels

Display aspect ratio : 16:9

Frame rate mode : Constant

Frame rate : 29.930 fps

Color space : YUV

Chroma subsampling : 4:2:0

Bit depth : 8 bits

Scan type : Progressive

Bits/(Pixel*Frame) : 0.127

Stream size : 3.12 GiB (94%)

Title : Miss.Peregrines.Home.For.Peculiar.Children.2016.720p.KORSUB.HDRip.x264.AAC2.0-STUTTERSHIT

Writing library : x264 core 148 r2694 3b70645

Encoding settings : cabac=1 / ref=4 / deblock=1:0:0 / analyse=0x3:0x113 / me=umh / subme=8 / psy=1 / psy_rd=1.00:0.00 / mixed_ref=1 / me_range=16 / chroma_me=1 / trellis=1 / 8x8dct=1 / cqm=0 / deadzone=21,11 / fast_pskip=1 / chroma_qp_offset=-2 / threads=40 / lookahead_threads=5 / sliced_threads=0 / nr=0 / decimate=1 / interlaced=0 / bluray_compat=0 / constrained_intra=0 / bframes=3 / b_pyramid=2 / b_adapt=2 / b_bias=0 / direct=3 / weightb=1 / open_gop=0 / weightp=2 / keyint=250 / keyint_min=25 / scenecut=40 / intra_refresh=0 / rc_lookahead=50 / rc=abr / mbtree=1 / bitrate=3500 / ratetol=1.0 / qcomp=0.60 / qpmin=0 / qpmax=69 / qpstep=4 / ip_ratio=1.40 / aq=1:1.00

Audio

ID : 2

Format : AAC

Format/Info : Advanced Audio Codec

Format profile : LC

Codec ID : 40

Duration : 2h 6mn

Bit rate mode : Constant

Bit rate : 224 Kbps

Channel(s) : 2 channels

Channel positions : Front: L R

Sampling rate : 44.1 KHz

Frame rate : 43.066 fps (1024 spf)

Compression mode : Lossy

Stream size : 203 MiB (6%)

Title : Miss.Peregrines.Home.For.Peculiar.Children.2016.720p.KORSUB.HDRip.x264.AAC2.0-STUTTERSHIT

Default : Yes

Alternate group : 1

《佩小姐的奇幻城堡》剧照-1

《佩小姐的奇幻城堡》剧照-2

《佩小姐的奇幻城堡》剧照-3

《佩小姐的奇幻城堡》剧照-4

《佩小姐的奇幻城堡》剧照-5

  《佩小姐的奇幻城堡》是由美国制片公司拍摄的一部片长127分钟的电影,由国外导演蒂姆·波顿 Tim Burton执导,和演员塞缪尔·杰克逊、金·迪肯斯、艾拉·珀内尔、克里斯·奥多德、阿萨·巴特菲尔德领衔主演。感谢您下载观看佩小姐的奇幻城堡,五一BT影院精心收集整理了所有本片资源列表,包括《佩小姐的奇幻城堡BT种子》、《佩小姐的奇幻城堡Magnet磁力链接》、《佩小姐的奇幻城堡迅雷下载》、《佩小姐的奇幻城堡QQ旋风下载》和《佩小姐的奇幻城堡快车下载》等常用下载方式,我们汇集网络数十家国内一流的迅雷、bt、磁力电影网络资源,是致力于为电影迷们分享高清、免费、优质的德国电影资源的网站。

佩小姐的奇幻城堡电影下载:

提示:推荐使用BitComet、Utorrent、迅雷下载佩小姐的奇幻城堡。喜欢在线看的朋友可以把种子上传到百度网盘、115网盘,离线下载完手机电脑都可以在线看。

佩小姐的奇幻城堡电影评论

评论模块已关闭

更多精彩电影